#TITLE:Metal Warrior;
#SUBTITLE:;
#ARTIST:Cadaver;
#TITLETRANSLIT:;
#SUBTITLETRANSLIT:;
#ARTISTTRANSLIT:;
#CREDIT:;
#BANNER:Metal Warrior.png;
#BACKGROUND:Metal Warrior-bg.png;
#LYRICSPATH:;
#CDTITLE:cdtitle.png;
#MUSIC:Metal Warrior.mp3;
#OFFSET:1.885;
#SAMPLESTART:108.920;
#SAMPLELENGTH:11.160;
#SELECTABLE:YES;
#BPMS:0.000=125.320;
#STOPS:;
#BGCHANGES:;
// cache tags:
#FIRSTBEAT:4.000;
#LASTBEAT:339.750;
#SONGFILENAME:Songs/Music V.I.P ^_^/Metal Warrior (Zaghurim)/Metal Warrior.sm;
#HASMUSIC:1;
#HASBANNER:1;
#MUSICLENGTH:168.620;
// end cache tags

//---------------dance-single - ----------------
#NOTES:
     dance-single:
     :
     Hard:
     13:
     1.000,0.856,0.397,0.000,1.000,1152.000,67.000,0.000,0.000,0.000:

0000
0000
0000
0000
,
0010
0100
0010
0010
0100
0010
0010
1000
0010
0010
0100
0010
1000
0010
0100
0010
,
0010
0100
0010
0010
0100
0010
0010
0101
0000
0000
0110
0000
1100
0000
0011
0000
,
1010
0100
0010
1010
0100
0010
0010
1000
0010
0010
0100
0010
1000
0010
0100
0010
,
0010
0100
0010
0010
0100
0010
0010
1001
0000
0001
0010
0100
1000
0001
0010
0100
,
0010
0100
0010
0010
0100
0010
0010
1000
0010
0010
0100
0010
1000
0010
0100
0010
,
0010
0100
0010
0010
1000
0010
0100
0010
1100
0000
0110
0000
1100
0000
0011
0000
,
0010
0100
0010
0010
0100
0010
0010
1000
0010
0010
0100
0010
1000
0010
0100
0010
,
0010
0100
0010
0010
0100
0010
0010
0100
0010
1000
0010
0100
0001
1000
0100
0010
,
0001
0100
0001
0001
0100
0001
0001
1000
0001
0001
0100
0001
1000
0001
0100
0001
,
0001
0100
0001
0001
0100
0001
0001
1100
0000
0000
0110
0000
1100
0000
0011
0000
,
0001
0100
0001
0001
0100
0001
0001
1000
0001
0001
0100
0001
1000
0001
0100
0001
,
0001
0000
0000
0100
0000
0000
0001
0000
0000
0001
0000
0000
0100
0000
0000
0001
0000
0000
0001
0000
0000
1100
0000
0000
0001
0000
0010
0000
0100
0000
1000
0000
0000
0001
0000
0000
0000
0000
0000
1000
0000
0000
0001
0000
0000
0000
0000
0000
,
0010
0100
0010
0010
0100
0010
0010
1000
0010
0010
0100
0010
1000
0010
0100
0010
,
0010
0100
0010
0010
1000
0010
0100
0011
0000
0000
0110
0000
1100
0000
0011
0000
,
0010
0100
0010
0010
0100
0010
0010
1000
0010
0010
0100
0010
1000
0010
0100
0010
,
0010
0100
0010
0010
0100
0010
0010
0100
0011
0000
0101
0000
1001
0000
1100
0000
,
0001
0100
0010
1000
0001
0010
0001
0100
0010
0100
0001
0100
0010
1000
0010
0100
,
0001
0010
0100
1000
0001
0100
0010
1000
0010
0100
0001
1000
0100
0010
0001
0010
,
0100
1000
0001
0100
0010
1000
0001
0100
0010
0100
0001
0010
0001
1000
0010
0100
,
0001
0100
0001
0100
0010
0100
0010
1000
0010
0100
0001
1000
0010
0100
0001
0010
,
0100
1000
0010
0100
0001
1000
0100
0010
0001
1000
0010
0100
0001
0010
0100
1000
,
0001
0100
0010
1000
0010
0100
0001
0100
0010
1000
0010
0100
0010
1000
0010
1000
,
0001
0100
0001
0100
0010
0100
0001
1000
0001
1000
0010
0100
0001
0100
0010
1000
,
0001
1000
0010
0100
0001
1000
0010
0100
0001
1000
0010
0100
0001
1000
0010
0100
,
0001
0010
0100
1000
0001
0100
0010
1000
0001
0100
0010
1000
0001
0100
0001
0100
,
0010
0100
0001
0010
0100
1000
0010
0100
0010
1000
0100
0010
0001
1000
0010
0100
,
0001
0010
0100
1000
0001
0100
0010
1000
0001
0100
0010
1000
0100
0010
0001
0010
,
0100
1000
0001
0100
0001
0010
0100
1000
0010
1000
0100
0010
0001
0100
0010
0100
,
0001
0010
0100
1000
0001
0100
0010
1000
0010
0100
0001
0010
0100
1000
0010
0100
,
0010
1000
0001
1000
0010
0100
0010
1000
0001
0100
0010
1000
0001
0100
0010
1000
,
0100
0010
0001
0010
0100
1000
0001
0100
0010
1000
0100
0010
0001
0100
0010
0100
,
0001
0010
0100
1000
0001
0100
0010
1000
0100
0010
0001
0100
0010
1000
0010
0100
,
0001
0100
0001
0001
0100
0001
0001
1000
0001
0001
0100
0001
1000
0001
0100
0001
,
0001
0100
0001
0001
0100
0001
0001
1100
0000
0000
0110
0000
1100
0000
0011
0000
,
0001
0100
0001
0001
0100
0001
0001
1000
0001
0001
0100
0001
1000
0001
0100
0001
,
0001
0000
0000
0100
0000
0000
0001
0000
0000
0001
0000
0000
0100
0000
0000
0001
0000
0000
0001
0000
0000
1000
0000
0000
0001
0000
0010
0000
0100
0000
1000
0000
0000
0001
0000
0000
0000
0000
0000
0001
0000
0000
1000
0000
0000
0000
0000
0000
,
1000
0000
0000
1000
0011
0000
0000
1000
0000
0000
0001
0000
0110
0000
1000
0000
,
1000
0000
0000
1000
0011
0000
0000
1100
0000
0000
0101
0000
0110
0000
1010
0000
,
1000
0000
0000
1000
0011
0000
0000
1000
0000
0000
0001
0000
0110
0000
1000
0000
,
1000
0000
0000
1000
0011
0000
0000
1100
0000
0000
0101
0000
0110
0000
1010
0000
,
1000
0000
0000
1000
0011
0000
0000
1000
0000
0000
0001
0000
0110
0000
1000
0000
,
1000
0000
0000
1000
0011
0000
0000
1100
0000
0000
0101
0000
0110
0000
1010
0000
,
1000
0000
0000
1000
0011
0000
0000
1000
0000
0000
0001
0000
0110
0000
1000
0000
,
0001
0100
0010
1000
0001
0100
0010
1000
0001
0100
0010
0000
0010
0000
0010
0100
,
0001
0010
0100
1000
0100
0010
0001
1000
0001
0010
0100
1000
0100
0010
0001
1000
,
0001
0010
0100
1000
0100
0010
0001
1000
0001
0010
0100
1000
0100
0010
0001
1000
,
0001
0100
0010
1000
0010
0100
0001
1000
0010
0100
0001
1000
0010
0100
0001
1000
,
0010
0100
0001
1000
0010
0100
0001
1000
0010
0100
0001
1000
0010
0100
0001
1000
,
0001
0010
0100
1000
0100
0010
0001
1000
0001
0010
0100
1000
0100
0010
0001
1000
,
0001
0010
0100
1000
0100
0010
0001
1000
0001
0010
0100
1000
0100
0010
0001
1000
,
0001
0100
0001
1000
0001
0100
0001
1000
0001
0100
0001
0100
0001
1000
0001
0100
,
0001
0100
0001
0100
0001
1000
0001
0100
0001
1000
0001
0100
0001
1000
0001
1000
,
0010
0100
1000
0010
0000
0000
0010
0000
0010
0100
1000
0001
0000
0000
0001
0000
,
0010
0100
1000
0010
0000
0000
0010
0000
0001
0000
0010
0000
0100
0000
1000
0000
,
0010
0100
1000
0010
0000
0000
0010
0000
0010
0100
1000
0001
0000
0000
0001
0000
,
0010
0100
1000
0010
0000
0000
0010
0000
0001
0000
0010
0000
0100
0000
1000
0000
,
0010
0100
1000
0010
0000
0000
0010
0000
0010
0100
1000
0001
0000
0000
0001
0000
,
0010
0100
1000
0010
0000
0000
0010
0000
0001
0000
0010
0000
0100
0000
1000
0000
,
1000
0000
0010
0100
0000
1000
0001
0000
1000
0000
0010
0100
0000
1000
0001
0000
,
1000
0100
0010
0001
,
0010
0100
1000
0001
0100
0010
1000
0000
0010
0100
1000
0001
1000
0010
0100
0000
,
0010
0100
1000
0001
0100
0010
1000
0000
0011
0000
0101
0000
0110
0000
1010
0000
,
0010
0100
1000
0001
0100
0010
1000
0000
0010
0100
1000
0001
1000
0010
0100
0000
,
0010
0100
1000
0001
0100
0010
1000
0000
0011
0000
0101
0000
0110
0000
1010
0000
,
0010
0100
1000
0001
0100
0010
1000
0000
0010
0100
1000
0001
1000
0010
0100
0000
,
0010
0100
1000
0001
0100
0010
1000
0000
0011
0000
0101
0000
0110
0000
1010
0000
,
1000
0000
0010
0100
0000
1000
0001
0000
1000
0000
0010
0100
0000
1000
0001
0000
,
1100
1010
0110
0011
,
0001
0100
0010
1000
0001
0010
0001
0100
0010
0100
0001
0100
0010
1000
0010
0100
,
0001
0010
0100
1000
0001
0100
0010
1000
0010
0100
0001
1000
0100
0010
0001
0010
,
0100
1000
0001
0100
0010
1000
0001
0100
0010
0100
0001
0010
0001
1000
0010
0100
,
0001
0100
0001
0100
0010
0100
0010
1000
0010
0100
0001
1000
0010
0100
0001
0010
,
0100
1000
0010
0100
0001
1000
0100
0010
0001
1000
0010
0100
0001
0010
0100
1000
,
0001
0100
0010
1000
0010
0100
0001
0100
0010
1000
0010
0100
0010
1000
0010
1000
,
0001
0100
0001
0100
0010
0100
0001
1000
0001
1000
0010
0100
0001
0100
0010
1000
,
0001
1000
0010
0100
0001
1000
0010
0100
0001
1000
0010
0100
0001
1000
0010
0100
,
0001
0010
0100
1000
0001
0100
0010
1000
0001
0100
0010
1000
0001
0100
0001
0100
,
0010
0100
0001
0010
0100
1000
0010
0100
0010
1000
0100
0010
0001
1000
0010
0100
,
0001
0010
0100
1000
0001
0100
0010
1000
0001
0100
0010
1000
0100
0010
0001
0010
,
0100
1000
0001
0100
0001
0010
0100
1000
0010
1000
0100
0010
0001
0100
0010
0100
,
0001
0010
0100
1000
0001
0100
0010
1000
0010
0100
0001
0010
0100
1000
0010
0100
,
0010
1000
0001
1000
0010
0100
0010
1000
0001
0100
0010
1000
0001
0100
0010
1000
,
0100
0010
0001
0010
0100
1000
0001
0100
0010
1000
0100
0010
0001
0100
0010
0100
,
0001
0010
0100
1000
0001
0100
0010
1000
0100
0010
0001
0100
0010
1000
0010
0100
;

//---------------dance-single - ----------------
#NOTES:
     dance-single:
     :
     Challenge:
     13:
     1.000,1.000,1.000,0.000,1.000,1229.000,568.000,0.000,0.000,0.000:





0000
0000
0000
0000
,
0010
0100
0010
0010
0100
0010
0010
1000
0010
0010
0100
0010
1000
0010
0100
0010
,
0010
0100
0010
0010
0100
0010
0010
0101
0000
0000
0110
0000
1100
0000
0011
0000
,
1010
0100
0010
1010
0100
0010
0010
1000
0010
0010
0100
0010
1000
0010
0100
0010
,
0010
0100
0010
0010
0100
0010
0010
1001
0000
0011
1100
1001
0110
1010
0101
1010
,
1100
0010
1100
1100
0010
1100
1100
0001
1100
1100
1010
1100
0001
1100
1010
0100
,
1100
0000
0010
0000
1100
0000
1100
0000
0010
0000
0101
0000
1010
0000
0100
0010
1001
0000
0000
0000
0110
0000
1000
0000
0011
0000
1000
0000
0110
0000
0000
0000
,
1100
0010
1100
1100
0010
1100
1100
0001
1100
1100
1010
1100
0001
1100
1010
0100
,
1100
0000
0010
0000
1100
0000
1100
0000
0010
0000
1100
0000
1100
0000
0010
0100
1001
0000
0110
0000
1001
0000
0110
0000
0101
0000
1010
0000
0011
0000
1100
0000
,
0011
0100
0011
0011
0100
0011
0011
1000
0011
0011
0101
0011
1000
0011
0101
0010
,
0011
0000
0100
0000
0011
0000
0011
0000
0100
0000
1001
0000
0110
0000
0001
0010
1100
0000
0000
0000
0110
0000
0001
0000
1100
0000
0001
0000
0110
0000
0000
0000
,
0011
0100
0011
0011
0100
0011
0011
1000
0011
0011
0101
0011
1000
0011
0101
0010
,
0011
0000
0000
0000
0000
0000
0000
0000
0000
0000
0000
0000
0100
0000
0000
0000
0000
0000
0000
0000
0000
0000
0000
0000
0011
0000
0000
0000
0000
0000
0000
0000
0000
0000
0000
0000
0011
0000
0000
0000
0000
0000
0000
0000
0000
0000
0000
0000
0100
0000
0000
0000
0000
0000
0000
0000
0000
0000
0000
0000
0011
0000
0000
0000
0000
0000
0000
0000
0000
0000
0000
0000
0011
0000
0000
0000
0000
0000
0000
0000
0000
0000
0000
0000
0100
0000
0000
0000
0000
0000
0010
0000
0000
0000
0000
0000
1001
0000
0000
0000
0000
0000
0000
0000
0110
0000
0000
0000
0000
0000
0000
0000
1001
0000
0000
0000
0000
0000
0000
0000
0110
0000
0000
0000
0000
0000
0000
0000
1001
0000
0000
0000
0000
0000
0000
0000
0110
0000
0000
0000
0000
0000
0000
0000
0000
0000
0000
0000
0000
0000
0000
0000
0000
0000
0000
0000
1001
0000
0000
0000
0000
0000
0000
0000
0000
0000
0000
0000
0110
0000
0000
0000
0000
0000
0000
0000
0000
0000
0000
0000
0000
0000
0000
0000
0000
0000
0000
0000
0000
0000
0000
0000
,
1010
0001
1010
1010
0001
1010
1010
0100
1010
1010
0011
1010
0100
1010
0011
0100
,
1010
0000
0001
0000
1010
0000
1010
0000
0001
0000
1010
0000
1010
0000
0100
0010
1001
0000
0000
0000
1001
0000
0010
0000
0101
0000
0010
0000
1001
0000
0000
0000
,
1010
0001
1010
1010
0001
1010
1010
0100
1010
1010
0011
1010
0100
1010
0011
1000
,
1010
0000
0001
0000
1010
0000
1010
0000
0001
0000
1010
0000
1010
0000
0100
0010
1001
0000
0000
0000
1001
0000
0100
0000
0011
0000
0100
0000
1001
0000
0000
0000
,
0001
0100
0010
1000
0110
1000
0011
1000
0101
0010
1100
0010
0101
1000
0011
0100
,
0011
1000
0001
0100
0010
1000
0011
1000
0101
1000
0001
0010
0101
1000
0100
0010
,
0001
1000
0010
0100
0011
1000
0101
1000
0110
1000
0101
1000
0110
1000
0101
0010
,
1001
0100
0010
0100
0001
0100
1010
0100
1001
0010
0001
1000
0110
1000
0010
0100
,
0010
1000
0100
0010
0101
1000
0011
0100
1001
0010
0101
1000
0011
0100
1001
0100
,
0011
0100
0001
1000
0010
0100
0011
1000
0110
1000
0101
0010
0101
1000
0011
0100
,
1010
0100
0010
1000
0001
0010
0001
1000
0100
1000
0010
0100
0010
1000
0100
1000
,
0011
0101
1010
1100
0011
0101
1010
1100
0011
0101
1010
1100
0011
0100
0011
1100
,
0001
0100
0010
1000
0110
1000
0011
1000
0101
0010
1100
0010
0101
1000
0011
0100
,
0011
1000
0001
0100
0010
1000
0011
1000
0101
1000
0001
0010
0101
1000
0100
0010
,
0001
1000
0010
0100
0011
1000
0101
1000
0110
1000
0101
1000
0110
1000
0101
0010
,
1001
0100
0010
0100
0001
0100
1010
0100
1001
0010
0001
1000
0110
1000
0010
0100
,
0010
1000
0100
0010
0101
1000
0011
0100
1001
0010
0101
1000
0011
0100
1001
0100
,
0011
0100
0001
1000
0010
0100
0011
1000
0110
1000
0101
1010
0101
1000
0011
0100
,
1010
0100
0010
1000
0001
0010
0100
1000
0001
0100
0010
1000
0001
0010
0100
1000
,
0001
0100
0010
1000
0100
0010
0001
1000
0010
0100
0001
0010
0100
1000
0001
0100
,
1010
0001
1010
1010
0001
1010
1010
0100
1010
1010
0011
1010
0100
1010
0011
1000
,
1010
0000
0001
0000
1010
0000
1010
0000
0001
0000
1010
0000
1010
0000
0100
0010
1001
0000
0000
0000
1001
0000
0010
0000
0101
0000
0010
0000
1001
0000
0000
0000
,
1010
0001
1010
1010
0001
1010
1010
0100
1010
1010
0011
1010
0100
1010
0011
1000
,
1010
0000
0000
0000
0000
0000
0000
0000
0000
0000
0000
0000
0001
0000
0000
0000
0000
0000
0000
0000
0000
0000
0000
0000
1010
0000
0000
0000
0000
0000
0000
0000
0000
0000
0000
0000
1010
0000
0000
0000
0000
0000
0000
0000
0000
0000
0000
0000
0001
0000
0000
0000
0000
0000
0000
0000
0000
0000
0000
0000
1010
0000
0000
0000
0000
0000
0000
0000
0000
0000
0000
0000
0101
0000
0000
0000
0000
0000
0000
0000
0000
0000
0000
0000
1000
0000
0000
0000
0000
0000
0100
0000
0000
0000
0000
0000
0011
0000
0000
0000
0000
0000
0000
0000
1100
0000
0000
0000
0000
0000
0000
0000
0011
0000
0000
0000
0000
0000
0000
0000
1100
0000
0000
0000
0000
0000
0000
0000
0011
0000
0000
0000
0000
0000
0000
0000
1100
0000
0000
0000
0000
0000
0000
0000
0000
0000
0000
0000
0000
0000
0000
0000
0000
0000
0000
0000
0011
0000
0000
0000
0000
0000
0000
0000
0000
0000
0000
0000
1100
0000
0000
0000
0000
0000
0000
0000
0000
0000
0000
0000
0000
0000
0000
0000
0000
0000
0000
0000
0000
0000
0000
0000
,
1000
0000
0000
1000
0011
0000
0000
1000
0000
0000
0001
0000
0110
0000
1000
0000
,
1000
0000
0000
1000
0011
0000
0000
1100
0000
0000
0101
0000
0110
0000
1010
0000
,
1000
0000
0000
1000
0011
0000
0000
1000
0000
0000
0001
0000
0110
0000
1000
0000
,
1000
0000
0000
1000
0011
0000
0000
1100
0000
0000
0101
0000
0110
0000
1010
0000
,
1000
0000
0000
1000
0011
0000
0000
1000
0000
0000
0001
0000
0110
0000
1000
0000
,
1000
0000
0000
1000
0011
0000
0000
1100
0000
0000
0101
0000
0110
0000
1010
0000
,
1000
0000
0000
1000
0011
0000
0000
1000
0000
0000
0001
0000
0110
0000
1000
0000
,
1100
0011
1001
0110
1010
0101
1001
0110
0011
1100
1001
0110
1001
0000
0011
1100
,
0001
0010
0101
1010
0100
0010
0101
1000
0001
0010
0101
1010
0100
0010
0101
1000
,
0001
0010
0101
1010
0100
0010
0101
1000
0001
0010
0101
1010
0100
0010
0101
1000
,
0001
0010
0101
1010
0100
0010
0101
1000
0001
0010
0101
1010
0100
0010
0101
1000
,
0001
0010
0101
1010
0100
0010
0101
1000
0001
0010
0101
1010
0100
0010
0101
1000
,
0001
0010
0101
1010
0100
0010
0101
1000
0001
0010
0101
1010
0100
0010
0101
1000
,
0001
0010
0101
1010
0100
0010
0101
1000
0001
0010
0101
1010
0100
0010
0101
1000
,
0001
0010
0101
1010
0100
0010
0101
1000
0001
0010
0101
1010
0100
0010
0101
1000
,
0001
0010
0101
1010
0100
0010
0101
1000
0001
0010
0101
1010
0100
0010
0101
1000
,
0001
0010
0101
1010
0001
1000
0110
1000
0001
0010
0101
1010
0001
1000
0011
1000
,
0001
0010
0101
1010
0001
1000
0011
1000
0001
0000
0110
1001
0100
0000
1010
0000
,
0001
0010
0101
1010
0001
1000
0110
1000
0001
0010
0101
1010
0001
1000
0011
1000
,
0001
0010
0101
1010
0001
1000
0110
1000
0001
0000
0110
1001
0100
0000
1010
0000
,
0001
0010
0101
1010
0001
1000
0110
1000
0001
0010
0101
1010
0001
1000
0110
1000
,
0001
0010
0101
1010
0001
1000
0110
1000
0001
0000
0110
1001
0100
0000
1001
0000
,
1000
0000
1001
0100
0000
0100
1001
0000
1000
0000
0011
0100
0000
0100
0011
0000
,
1000
0000
1010
0100
0000
0100
1010
0000
1000
0000
0101
1000
0000
1000
0101
0000
,
1001
0110
1001
0110
1001
0110
1001
0010
0101
1010
0101
1010
0101
1010
0101
0010
,
1001
0110
1001
0110
1001
0110
1001
0100
0011
0000
0110
0000
1001
0000
1100
0000
,
1001
0110
1001
0110
1001
0110
1001
0010
0101
1010
0101
1010
0101
1010
0101
0010
,
1001
0110
1001
0110
1001
0110
1001
0100
0011
0000
0110
0000
1001
0000
1100
0000
,
1001
0110
1001
0110
1001
0110
1001
0010
0101
1010
0101
1010
0101
1010
0101
0010
,
1001
0110
1001
0110
1001
0110
1001
0100
0011
0000
0101
0000
0110
0000
1010
0000
,
1100
0000
0011
0100
0000
1000
0011
0000
1000
0000
0011
0100
0000
1000
0011
0000
,
1100
0000
1010
0100
1001
0100
1010
0000
1001
0000
1010
0100
0011
0100
1010
0000
,
0001
0100
0010
1000
0110
1000
0011
1000
0101
0010
1100
0010
0101
1000
0011
0100
,
0011
1000
0001
0100
0010
1000
0011
1000
0101
1000
0001
0010
0101
1000
0100
0010
,
0001
1000
0010
0100
0011
1000
0101
1000
0110
1000
0101
1000
0110
1000
0101
0010
,
1001
0100
0010
0100
0001
0100
1010
0100
1001
0010
0001
1000
0110
1000
0010
0100
,
0010
1000
0100
0010
0101
1000
0011
0100
1001
0010
0101
1000
0011
0100
1001
0100
,
0011
0100
0001
1000
0010
0100
0011
1000
0110
1000
0101
0010
0101
1000
0011
0100
,
1010
0100
0010
1000
0001
0010
0001
1000
0100
1000
0010
0100
0010
1000
0100
1000
,
0011
0101
1010
1100
0011
0101
1010
1100
0011
0101
1010
0011
1100
0010
0101
1010
,
0001
0100
0010
1000
0110
1000
0011
1000
0101
0010
1100
0010
0101
1000
0011
0100
,
0011
1000
0001
0100
0010
1000
0011
1000
0101
1000
0001
0010
0101
1000
0100
0010
,
0001
1000
0010
0100
0011
1000
0101
1000
0110
1000
0101
1000
0110
1000
0101
0010
,
1001
0100
0010
0100
0001
0100
1010
0100
1001
0010
0001
1000
0110
1000
0010
0100
,
0010
1000
0100
0010
0101
1000
0011
0100
1001
0010
0101
1000
0011
0100
1001
0100
,
0011
0100
0001
1000
0010
0100
0011
1000
0110
1000
0101
1010
0101
1000
0011
0100
,
1010
0100
0010
1000
0001
0010
0100
1000
0001
0100
0010
1000
0001
0010
0100
1000
,
0001
0100
0010
1000
0100
0010
0001
1000
0010
0100
0001
0010
0100
1000
0001
0100
;
